#TITLE:Full Tilt;
#SUBTITLE:;
#ARTIST:The Cynic Project;
#TITLETRANSLIT:;
#SUBTITLETRANSLIT:;
#ARTISTTRANSLIT:;
#CREDIT:;
#BANNER:FullTilt.png;
#BACKGROUND:Full Tilt-BG.png;
#LYRICSPATH:;
#CDTITLE:cdtitle.png;
#MUSIC:Full Tilt.mp3;
#OFFSET:-0.621;
#SAMPLESTART:38.811;
#SAMPLELENGTH:12.000;
#SELECTABLE:YES;
#BPMS:0.000=186.000;
#STOPS:;
#BGCHANGES:;
// cache tags:
#FIRSTBEAT:4.000;
#LASTBEAT:396.000;
#SONGFILENAME:Songs/Music V.I.P ^_^/Full Tilt [Eclipse]/Full Tilt.sm;
#HASMUSIC:1;
#HASBANNER:1;
#MUSICLENGTH:130.382;
// end cache tags

//---------------dance-single - ----------------
#NOTES:
     dance-single:
     :
     Challenge:
     11:
     0.963,0.987,1.000,0.084,0.817,737.000,131.000,11.000,0.000,0.000:
0000
0000
0000
0000
,
2002
0000
0000
0000
,
3003
0000
0000
0000
0000
0000
0000
0000
0010
0000
0000
0010
,
0000
0000
0010
0000
0000
0010
0000
0000
0010
0000
0000
0010
,
0000
0000
0010
0000
0000
0010
0000
0000
0010
0000
0000
0010
,
0000
0000
0010
0000
0000
0010
0000
0000
0010
0000
0000
0010
,
0000
0000
0000
0000
0010
0000
0000
0000
0000
0000
0000
0000
0100
0000
0000
0010
0000
0000
0001
0000
0000
1000
0000
0000
,
0001
0100
0010
0100
1000
0100
0010
0100
,
0010
1000
0100
0010
0001
0010
0100
1000
,
0001
0010
0100
0001
1000
0010
0100
0001
,
0100
0010
1000
0001
0100
0010
1000
0100
,
0010
0001
0010
0100
1000
0100
0010
0001
,
0100
0010
1000
0001
0100
0010
1000
0001
,
0100
0010
1000
0010
0100
0001
1000
0010
,
0100
0001
1000
0001
1000
0001
0100
0010
,
0100
1000
0010
1000
0010
1000
0100
0001
,
0100
0001
0100
0010
0010
1000
1000
0100
,
0100
0010
0010
0001
0001
1000
1000
0110
,
1001
1100
0011
1010
0101
1001
0010
0000
,
0100
0100
0100
0100
,
0100
0000
0000
0000
0010
0000
0000
0000
0010
0100
0010
0000
0001
0000
0000
0000
,
1000
1000
1000
1000
,
1000
0200
0000
0310
0000
0100
0100
0000
,
0010
0000
0000
0000
0010
0000
0000
0000
0100
1000
0100
0000
0100
0000
0000
0000
,
0100
0001
1000
0010
,
0100
0001
1000
0010
,
0002
0000
0000
0100
0000
0000
0003
0000
0000
1000
0000
0000
0000
0000
0010
0000
1000
0000
0010
0000
1000
0000
0010
0000
,
1000
0010
1000
0100
1000
0100
0010
0001
0010
0100
1000
0100
,
0010
0001
0010
0100
1000
0100
1000
0010
1000
0100
1000
0010
,
1000
0100
0010
0001
0010
0001
0100
0001
0010
0100
1000
0001
,
1000
0001
1000
0001
0100
0010
0100
0010
0100
0010
0001
0010
,
0100
0010
0001
0100
1000
0100
0010
0100
1000
0100
0010
0001
,
0010
0100
1000
0100
0010
0100
1000
0100
0010
0100
0010
0100
,
0010
0100
1000
0001
0100
0010
1000
0001
0100
0010
1000
0010
,
0100
0000
0001
0000
1000
0000
0010
0000
0100
0000
0001
0000
1001
0000
0000
0100
0000
0000
1001
0000
0000
0100
0000
0000
,
1001
0000
1001
0000
0110
0010
0110
0100
,
0110
0000
1001
0000
1100
0100
1000
0100
,
0101
0000
1010
0000
1001
0100
1000
0100
,
0101
0000
0011
0000
1001
0100
1000
0100
,
1010
0000
0101
0000
0110
0100
1000
0100
,
1001
0000
0011
0000
0101
0100
1000
0100
,
1001
0000
0110
0000
1001
0100
0001
0010
,
1100
0000
0000
0000
0000
0000
0011
0000
0000
0000
0000
0000
1100
0000
0000
0010
0000
0000
1001
0000
1000
0000
0010
0000
,
0100
0001
1000
0010
0100
0001
1000
0010
0100
0001
1000
0010
,
0100
0001
0010
0100
1000
0001
0010
0100
1000
0001
0010
0100
,
1000
0001
0010
0100
1000
0100
0010
0001
1000
0100
0010
0001
,
1000
0100
0010
0001
1000
0100
0010
0001
0100
0010
1000
0100
,
0010
0001
0100
0010
1000
0100
0010
0001
0100
0010
1000
0100
,
0010
0001
0010
0100
1000
0010
0100
0001
0010
0100
1000
0010
,
0100
0001
0010
0100
1000
0100
1000
0100
1000
0100
0010
0001
,
0002
0200
0000
0303
,
1001
0001
1000
1001
1001
0010
0100
1001
,
1001
1000
0001
1001
1001
0100
0010
1001
,
1001
0001
1000
1001
1001
0010
0100
1001
,
1001
1000
0001
1001
1001
0100
0010
1001
,
1001
0010
0100
1100
1100
0100
0010
0011
,
0011
0010
0100
1010
1010
0001
1000
1001
,
1001
0100
0010
1100
1100
0010
0001
0011
,
0011
0010
1000
1010
1010
0100
0001
0101
,
0101
1000
1000
1000
,
1000
0100
0100
0100
,
0100
0010
0010
0010
,
0010
0001
0001
0001
,
1001
1100
1100
0011
,
0011
0110
0110
1010
,
1010
0101
0101
1001
,
2002
0000
3003
0000
0000
0100
0011
0100
,
1001
0000
1100
0000
1001
0001
1010
0001
,
1100
0000
0011
0000
1001
1000
0101
1000
,
0011
0000
1100
0000
1001
0100
0110
0010
,
0110
0000
1001
0000
0110
0001
1100
0010
,
0110
0000
0011
0000
1100
0010
0101
0010
,
1001
0000
1010
0000
0100
0100
1001
0100
,
0010
1001
0010
0100
1001
0100
0010
1001
,
1001
0000
1000
0000
0100
0000
0010
0000
1001
0100
1000
0000
0001
0000
1000
0000
,
0001
0000
1000
0000
0001
0000
1000
0000
1001
0100
0010
0000
0100
0000
0010
0000
,
0100
0000
0010
0000
0100
0000
0010
0000
1001
0001
0100
0000
1000
0000
0100
0000
,
1000
0000
0100
0000
1000
0000
0100
0000
1010
0100
0001
0000
0100
0000
0010
0000
,
1000
0000
0001
0000
0100
0000
0010
0000
1010
0100
0010
0000
0001
0000
0010
0000
,
0001
0000
0010
0000
0001
0000
0010
0000
1010
0010
0100
0000
0010
0000
0001
0000
,
0010
0000
0100
0000
1000
0000
0100
0000
0011
0001
0010
0000
0100
0000
1000
0000
,
0100
0000
0010
0000
0001
0000
0010
0000
0011
1000
0100
0000
0010
0000
0001
0000
,
0010
0100
1000
0100
0000
0001
0001
0000
,
1000
0001
0100
0010
,
1000
0000
0000
0000
0100
0000
0000
0000
0010
0001
0010
0000
0100
0000
0000
0000
,
1100
0010
0101
0010
,
1000
0200
0000
1300
0000
1001
0100
1001
,
0010
0000
0000
0000
0010
0000
0000
0000
1001
0100
0010
0000
0100
0000
0001
0000
,
1100
0110
1001
1100
,
0011
1100
0110
1010
,
1000
0000
0000
0020
0000
0000
0000
0000
0000
0031
0000
0000
0000
0000
0100
0000
0010
0000
0001
0000
0010
0000
0100
0000
,
1000
0100
0010
0001
1000
0100
0010
0001
1000
0100
0010
0001
,
1000
0010
0100
0001
1000
0010
0100
0001
1000
0010
0100
0001
,
1000
0001
0100
0001
0010
0001
0100
0001
1000
0010
0100
0001
,
1000
0010
0100
0001
0100
0010
1000
0001
0100
0010
1000
0100
,
0010
0001
0010
0100
1000
0001
0010
0100
1000
0001
0010
0100
,
1000
0001
1000
0001
1000
0100
0010
0100
0010
0100
0010
0001
,
0010
0001
0010
0001
0010
0100
1000
0010
0100
0001
0010
0100
,
1000
0010
0100
0001
0010
0001
2000
0000
0000
0000
0000
0000
,
3000
0000
0000
0000
;
